<?xml version="1.0" standalone="no"?>
<!DOCTYPE svg PUBLIC "-//W3C//DTD SVG 1.1//EN" "http://www.w3.org/Graphics/SVG/1.1/DTD/svg11.dtd">
<svg xmlns="http://www.w3.org/2000/svg">
<metadata>Generated by Fontastic.me</metadata>
<defs>
<font id="fromdigital" horiz-adv-x="512">
<font-face font-family="fromdigital" units-per-em="512" ascent="480" descent="-32"/>
<missing-glyph horiz-adv-x="512" />

<glyph glyph-name="arrow-down-lg" unicode="&#98;" d="M269 448c0 7-6 13-13 13-7 0-13-6-13-13l0-352c0 0 0-1 0-1l-107 93c-5 5-13 4-18-1-4-5-4-13 2-18l128-112 8-7 8 7 128 112c6 5 6 13 2 18-5 5-13 6-18 1l-107-93c0 0 0 1 0 1z"/>
<glyph glyph-name="arrow-left-lg" unicode="&#99;" d="M449 242c7 0 13 6 13 13 0 7-6 13-13 13l-352 0c-1 0-1 0-1 0l93 107c5 5 4 13-1 18-5 5-14 4-18-1l-112-128-8-9 8-8 112-128c4-6 13-6 18-1 5 4 6 12 1 18l-93 106c0 0 0 0 1 0z"/>
<glyph glyph-name="close" unicode="&#110;" d="M286 256l134 134-30 30-134-134-134 134-30-30 134-134-134-134 30-30 134 134 134-134 30 30z"/>
<glyph glyph-name="facebook" unicode="&#111;" d="M192 314l32 0 0 34c-1 18 2 37 10 53 6 8 13 15 22 20 9 4 18 6 28 5 19 1 39-1 57-6l-8-52c-8 2-17 4-25 4-13 0-24-5-24-18l0-40 51 0-4-51-47 0 0-178-60 0 0 178-32 0z"/>
<glyph glyph-name="linkedin" unicode="&#112;" d="M148 405c0-11-4-22-12-30-8-8-19-12-31-12-11 0-22 4-30 12-8 8-12 19-12 30 0 12 4 23 12 31 8 8 19 12 30 12 12 0 23-5 31-13 8-8 12-18 12-30z m1-74l-85 0 0-267 85 0z m135 0l-85 0 0-267 84 0 0 140c0 78 102 85 102 0l0-140 84 0 0 169c0 132-150 127-186 62z"/>
<glyph glyph-name="twitter" unicode="&#115;" d="M405 372c-12-5-24-9-37-11 13 9 24 23 28 39-12-8-26-14-41-17-9 10-21 18-34 21-13 3-26 2-38-4-12-5-23-14-30-25-8-12-12-26-12-40 0-5 1-10 2-16-26 2-52 9-75 22-23 12-44 30-60 52-9-16-11-34-8-52 4-17 14-32 28-42-11 0-21 3-30 9l0-1c0-16 5-32 15-44 10-13 23-22 38-25-6-1-12-2-17-2-5 0-9 0-13 1 4-14 13-26 24-35 11-8 24-13 38-14-28-23-63-33-98-29 29-19 61-30 95-31 33-1 66 7 96 24 29 18 54 43 71 74 17 30 26 65 26 101 0 3 0 6 0 9 12 10 24 22 32 36"/>
<glyph glyph-name="twitter-x" unicode="&#116;" d="M284 291l112 136-27 0-96-118-77 118-89 0 116-178-116-142 26 0 102 124 81-124 89 0-121 184z m-36-44l-11 18-94 141 40 0 76-114 12-18 98-147-40 0-81 120z"/>
<glyph glyph-name="youtube" unicode="&#117;" d="M466 318c-1 14-3 27-6 41-5 18-19 32-37 36-55 9-111 12-167 10l-34-2c-23 0-49 0-76-2-19 0-38-2-57-6-18-4-32-18-37-36-7-34-10-69-9-103l1-18c0-13 1-27 2-44 1-14 3-27 6-41 5-18 19-32 37-36 55-9 111-12 167-10l34 2c23 0 49 0 76 2 19 0 38 2 57 6 18 4 32 18 37 36 7 34 10 69 9 103l-1 18c0 13-1 27-2 44z m-142-62l-111-64 0 128z"/>
<glyph glyph-name="arrow-down" unicode="&#97;" d="M252 399c-5 0-9-3-10-6-2-3-2-11-2-116l-1-113-30 26c-16 14-31 27-33 28-6 3-11 2-17-5-6-7-7-13-1-20 4-4 97-85 98-85 1 0 94 81 98 85 6 7 5 13-1 20-6 7-11 8-17 5-2-1-17-14-33-28l-30-26-1 113c0 106 0 113-2 116-2 5-11 8-18 6"/>
<glyph glyph-name="chevron-down" unicode="&#100;" d="M137 331l-10-12 3-3c7-7 125-113 126-113 1 0 119 106 126 113l3 3-10 12c-6 6-11 11-11 11 0 0-25-21-54-48-29-26-54-48-54-48 0 0-25 22-54 48-18 16-36 32-54 48 0 0-5-5-11-11"/>
<glyph glyph-name="chevron-left" unicode="&#101;" d="M198 391c-6-6-12-11-12-11 0 0 22-25 48-54l48-54-3-4c-24-27-93-103-93-104 0-1 22-21 23-21 1 0 116 129 116 129 0 1-115 129-116 129 0 0-5-5-11-10"/>
<glyph glyph-name="chevron-right" unicode="&#103;" d="M245 337c-20-21-39-43-58-65 0 0 115-129 116-129 1 0 23 21 23 22 0 0-83 92-93 103l-3 4 48 54c26 29 48 53 48 54 0 0-23 21-23 21 0 0-26-29-58-64"/>
<glyph glyph-name="chevron-up" unicode="&#104;" d="M194 275c-21-19-43-38-64-58l-3-3 10-11c6-7 11-12 11-12 0 0 25 22 54 48 29 27 54 48 54 48 0 0 25-21 54-48 18-16 36-32 54-48 0 0 5 5 11 12l10 11-3 3c-7 7-125 113-126 113 0 0-28-25-62-55"/>
<glyph glyph-name="arrow-up-lg" unicode="&#106;" d="M243 62c0-7 6-12 13-12 7 0 13 5 13 12l0 352c0 1 0 1 0 2l107-94c5-5 13-4 18 1 4 6 4 14-2 18l-128 112-8 8-8-8-128-112c-6-4-6-12-2-18 5-5 13-6 18-1l107 94c0-1 0-1 0-2z"/>
<glyph glyph-name="search" unicode="&#107;" d="M162 405c-72-44-97-132-55-200 41-68 130-96 192-61 24 14 28 12 62-19 26-26 37-30 46-20 10 9 6 20-20 46-31 34-33 38-19 62 68 121-86 265-206 192z m126-39c71-42 68-149-5-183-55-24-114-7-140 42-19 40-19 69 3 106 31 53 89 67 142 35z"/>
<glyph glyph-name="arrow-right-lg" unicode="&#102;" d="M63 268c-7 0-13-6-13-13 0-7 6-13 13-13l352 0c1 0 1 0 1 0l-93-106c-5-6-4-14 1-18 5-5 14-5 18 1l112 128 8 8-8 9-112 128c-4 5-13 6-18 1-5-5-6-13-1-18l93-107c0 0 0 0-1 0z"/>
<glyph glyph-name="arrow-left-long" unicode="&#105;" d="M150 303l-45-48 41-47c23-26 47-47 55-47 20-2 14 26-10 48-22 20-21 20 87 26 90 4 111 8 111 21 0 13-21 17-111 21-108 6-109 6-87 26 22 20 30 49 13 49-6 0-29-22-54-49z"/>
<glyph glyph-name="arrow-right-small" unicode="&#119;" d="M256 338c0-8 11-23 22-35 23-20 23-20-44-26-52-4-69-9-69-21 0-12 17-17 69-21 67-6 67-6 44-26-11-12-22-27-22-35 0-27 27-13 67 34l41 47-45 49c-46 49-63 59-63 34z"/>
<glyph glyph-name="arrow-up" unicode="&#120;" d="M199 354c-21-22-39-44-39-48 0-16 30-6 49 15 20 22 20 21 26-87 4-90 8-111 21-111 13 0 17 21 21 111 6 108 6 109 26 87 20-22 49-31 49-14 0 15-80 88-97 88-9 0-34-18-56-41z"/>
<glyph glyph-name="arrow-left-small" unicode="&#108;" d="M193 303l-46-48 42-47c22-26 47-47 54-47 20-2 15 26-9 48-23 20-23 20 44 26 52 4 69 9 69 21 0 12-17 17-69 21-67 6-67 6-44 26 22 20 29 49 12 49-5 0-28-22-53-49z"/>
<glyph glyph-name="arrow-right-long" unicode="&#109;" d="M293 401c-7-4-11-13-7-21 1-1 18-22 39-46l38-43-153-1-152 0-3-2c-12-6-12-21 0-28 2-1 27-1 155-1l154 0-38-44c-21-24-39-44-40-46-7-14 11-29 24-19 1 1 26 30 56 63l53 61-51 60c-29 32-54 60-56 63-6 5-12 7-19 4z"/>
<glyph glyph-name="menu" unicode="&#113;" d="M469 363l-426 0 0 42 426 0z m0-128l-298 0 0 42 298 0z m-426-128l426 0 0 42-426 0z"/>
<glyph glyph-name="clock" unicode="&#114;" d="M256 468c-114 0-207-94-207-207 0-114 93-207 207-207 114 0 207 93 207 207 0 113-93 207-207 207z m41-311l-62 108 0 99 31 0 0-91 58-101z"/>
<glyph glyph-name="location" unicode="&#118;" d="M256 496c-102 0-195-78-195-200 0-77 60-168 179-274 9-8 23-8 32 0 119 106 179 197 179 274 0 122-93 200-195 200z m0-244c-27 0-49 22-49 49 0 27 22 49 49 49 27 0 49-22 49-49 0-27-22-49-49-49z"/>
<glyph glyph-name="phone" unicode="&#121;" d="M410 186l-54 7c-13 1-26-3-35-13l-39-39c-61 31-110 80-141 141l40 39c9 9 13 22 12 35l-6 54c-3 22-21 38-43 38l-37 0c-24 0-44-20-42-44 11-183 157-328 339-339 24-2 44 18 44 42l0 37c0 22-16 40-38 42z"/>
<glyph glyph-name="filter" unicode="&#122;" d="M416 336l-320 0 0 32 320 0z m-48-96l-224 0 0 32 224 0z m-176-96l128 0 0 32-128 0z"/>
</font>
</defs>
</svg>
